[ Сегодня идет свободное скачивание без начисления Download ]


Статистика раздачи
Скачал
 
   
 
 
 
 
Челночницы [02х01-08 из 16] (2018) WEB-DLRip Название: Челночницы. Продолжение
Год выпуска: 2018
Жанр: Мелодрама
Выпущено: Россия, Кинокомпания "Русское"
Режиссер: Сергей Краснов, Юлия Краснова
В ролях: Мария Порошина, Елена Панова, Ирина Розанова, Светлана Иванова, Зоряна Марченко, Владимир Епифанцев, Константин Юшкевич, Вадим Колганов, Валентина Ляпина, Артём Фадеев, Артур Ваха, Олег Макаров, Илья Соколовский, Екатерина Травова, Людмила Гнилова, Софья Каштанова, Игорь Бочкин, Сергей Перегудов, Александр Дьяченко, Татьяна Агафонова, Илья Акинтьев, Михаил Пшеничный, Артём Осипов, Макар Запорожский, Оксана Мысина, Константин Соловьёв, Екатерина Соломатина, Павел Крайнов, Яна Крайнова, Анастасия Захарова, Анастасия Матвеева, Виктор Овсянников, Мария Свирид, Ксения Радченко (II), Виктор Конухин, Вера Смолина
О фильме: Челночницы продолжение,новый сезон переносит нас в 1998 год. Элла прочно заняла рынок. Подруги трудятся в торговом центре, все течет своим чередом. Но тут в столицу вернулся Беркут, прятавшийся на Кипре после убийства Лосева. Беркут жаждет возвратить себе свое. Он убежден, что Элла будет напугана и отдаст ему рынок без сопротивления. Но он недооценил Эллу. Ведь ей известно, что ее супруг погиб от рук Беркута. Она теперь не просто не отдаст ему рынок, но еще и хочет усадить его за решетку за убийство Лосева. Элла уволила подружек из торгового центра вернула их на рынок, чтобы там были свои люди. У Светы теперь автомобильная площадка, а у Алисы торговый павильон. Света очень довольна, у нее всегда была мечта об открытии автосервиса. У Оли, которая сидит без работы, неприятности, ее дочка плохо успевает в английском языке, а мама сильно больна, для ее лечения нужны деньги.
Файл
Качество: WEB-DLRip
Видео: XviD, ~ 1600 Кбит/с, 720х400
Аудио: AC3, 2 ch, 192 Кбит/с
Продолжительность: 8 x ~ 00:51:00
Перевод: Не требуется
Доп. ин.-ция

Внимание! Раздача ведётся путём добавления новых серий

Раздача ведётся путём добавления новых серий, при каждом добавлении создаётся новый торрент. Чтобы начать докачку новой серии, пользователям необходимо сделать следующее:
- Остановить скачивание.
- Удалить старый торрент у себя из клиента (старые серии удалять не надо).
- Скачать новый торрент и запустить его у себя в клиенте вместо старого, при этом указать клиенту путь в старую папку куда и должно происходить скачивание новых серий.
Ваш клиент при этом должен произвести хеширование (проверку) старой папки (если не производит сам - помогите ему сделать это), и будет докачивать только те серии которых у вас ещё нет. Старые серии при этом не удаляются, а продолжают раздаваться!

MediaInfo:

Общее
Полное имя : D:\моё видио\Челночницы. Продолжение.2018.WEB-DLRip.Files-x\01.Челночницы. Продолжение.2018.WEB-DLRip.Files-x.avi
Формат : AVI
Формат/Информация : Audio Video Interleave
Размер файла : 621 Мбайт
Продолжительность : 51 м.
Общий поток : 1702 Кбит/сек
Программа кодирования : VirtualDubMod 1.5.10.3 | www.virtualdub-fr.org || (build 2550/release)
Библиотека кодирования : VirtualDubMod build 2550/release
Видео
Идентификатор : 0
Формат : MPEG-4 Visual
Профиль формата : Advanced [email protected]
Параметр BVOP формата : 1
Параметр QPel формата : Нет
Параметр GMC формата : Без точки перехода
Параметр матрицы формата : Выборочная
Идентификатор кодека : XVID
Идентификатор кодека/Подсказка : XviD
Продолжительность : 51 м.
Битрейт : 1500 Кбит/сек
Ширина : 720 пикселей
Высота : 400 пикселей
Соотношение сторон : 16:9
Частота кадров : 25,000 кадров/сек
Цветовое пространство : YUV
Субдискретизация насыщенности : 4:2:0
Битовая глубина : 8 бит
Тип развёртки : Прогрессивная
Метод сжатия : С потерями
Бит/(Пиксели*Кадры) : 0.208
Размер потока : 548 Мбайт (88%)
Библиотека кодирования : XviD 73
Аудио
Идентификатор : 1
Формат : AC-3
Формат/Информация : Audio Coding 3
Расширение режима : CM (complete main)
Параметр Endianness формата : Big
Идентификатор кодека : 2000
Продолжительность : 51 м.
Вид битрейта : Постоянный
Битрейт : 192 Кбит/сек
Каналы : 2 канала
Расположение каналов : Front: L R
Частота : 48,0 КГц
Битовая глубина : 16 бит
Метод сжатия : С потерями
Размер потока : 70,1 Мбайт (11%)
Выравнивание : Разделение по промежуткам
Продолжительность промежутка : 40 мс. (1,00 видеокадр)
Время предзагрузки промежутка : 500 мс.

Скриншоты

Добавлены 1-8 серии.

[Цитировать]



Показать сообщения:    

Текущее время: 09-Сен 18:31

Часовой пояс: UTC + 6


Вы не можете начинать темы
Вы не можете отвечать на сообщения
Вы не можете редактировать свои сообщения
Вы не можете удалять свои сообщения
Вы не можете голосовать в опросах
Вы не можете прикреплять файлы к сообщениям
Вы не можете скачивать файлы

!ВНИМАНИЕ!
Сайт не предоставляет электронные версии произведений, а занимается лишь коллекционированием и каталогизацией ссылок, присылаемых и публикуемых на форуме нашими читателями. Если вы являетесь правообладателем какого-либо представленного материала и не желаете, чтобы ссылка на него находилась в нашем каталоге, свяжитесь с нами, и мы незамедлительно удалим ее. Файлы для обмена на трекере предоставлены пользователями сайта, и администрация не несет ответственности за их содержание. Просьба не заливать файлы, защищенные авторскими правами, а также файлы нелегального содержания!