[ Сегодня идет свободное скачивание без начисления Download ]


Статистика раздачи
Буду качать: [ 1 ]
Качаю: [ 2 ]
Скачал: [ 55 ]
 
   
 
 
 
 
Гурзуф [Серии 1-8 из 8] (2018) WEB-DLRip Оригинальное название: Гурзуф
Год выпуска: 2018
Жанр: Детектив, драма, криминал
Выпущено: Россия, Epic Media
Режиссер: Дмитрий Константинов
В ролях: Пётр Фёдоров, Евгений Антропов, Дарья Урсуляк, Павел Чинарёв, Мария Смольникова, Виталия Корниенко, Александр Бухаров, Тимур Бадалбейли, Константин Чепурин, Елена Нестерова, Алексей Комашко, Дмитрий Поднозов, Ольга Ергина, Вячеслав Чепурченко, Юлия Харьковская, Шамхал Хачатурян
О фильме: 1965 год. Родион Стоцкий работает в Гурзуфе, который за три года службы успел превратить в преуспевающий, спокойный город. С событий первой части, которые описаны в сериале «Город», прошло пять лет. Курорт, в котором Стоцкий служит начальником милиции, обходят стороной даже пляжные мошенники. Однако в начале очередного курортного сезона внезапно происходит сразу несколько преступлений, которые Стоцкий связывает между собой: в городе расстреливают такси с криминальными авторитетами, грабят грузовик с зарплатой сотрудников «Артека» и грабят пассажиров поезда «Москва — Симферополь». Расследование, в котором главному герою помогает его давний друг Тарас Зайцев, приводит Стоцкого к совершенно неожиданным результатам.
Файл:
Качество: WEB-DLRip
Видео: XviD, ~ 1700 Кбит/с, 720x400
Аудио: AC3, 2 ch, 192 Кбит/с
Продолжительность: 8 х ~ 00:50:00
Язык: Русский
Доп. ин.-ция

Внимание! Раздача ведётся путём добавления новых серий

Раздача ведётся путём добавления новых серий, при каждом добавлении создаётся новый торрент. Чтобы начать докачку новой серии, пользователям необходимо сделать следующее:
- Остановить скачивание.
- Удалить старый торрент у себя из клиента (старые серии удалять не надо).
- Скачать новый торрент и запустить его у себя в клиенте вместо старого, при этом указать клиенту путь в старую папку куда и должно происходить скачивание новых серий.
Ваш клиент при этом должен произвести хеширование (проверку) старой папки (если не производит сам - помогите ему сделать это), и будет докачивать только те серии которых у вас ещё нет. Старые серии при этом не удаляются, а продолжают раздаваться!

MediaInfo:

Общее
Полное имя : D:\моё видио\ГУРЗУФ.2018.WEB-DLRip.Files-x\01.ГУРЗУФ.2018.WEB-DLRip.Files-x.avi
Формат : AVI
Формат/Информация : Audio Video Interleave
Размер файла : 602 Мбайт
Продолжительность : 47 м.
Общий поток : 1775 Кбит/сек
Программа кодирования : VirtualDubMod 1.5.10.3 | www.virtualdub-fr.org || (build 2550/release)
Библиотека кодирования : VirtualDubMod build 2550/release
Видео
Идентификатор : 0
Формат : MPEG-4 Visual
Профиль формата : Advanced [email protected]
Параметр BVOP формата : 1
Параметр QPel формата : Нет
Параметр GMC формата : Без точки перехода
Параметр матрицы формата : Выборочная
Идентификатор кодека : XVID
Идентификатор кодека/Подсказка : XviD
Продолжительность : 47 м.
Битрейт : 1573 Кбит/сек
Ширина : 720 пикселей
Высота : 400 пикселей
Соотношение сторон : 16:9
Частота кадров : 25,000 кадров/сек
Цветовое пространство : YUV
Субдискретизация насыщенности : 4:2:0
Битовая глубина : 8 бит
Тип развёртки : Прогрессивная
Метод сжатия : С потерями
Бит/(Пиксели*Кадры) : 0.218
Размер потока : 533 Мбайт (89%)
Библиотека кодирования : XviD 73
Аудио
Идентификатор : 1
Формат : AC-3
Формат/Информация : Audio Coding 3
Расширение режима : CM (complete main)
Параметр Endianness формата : Big
Идентификатор кодека : 2000
Продолжительность : 47 м.
Вид битрейта : Постоянный
Битрейт : 192 Кбит/сек
Каналы : 2 канала
Расположение каналов : Front: L R
Частота : 48,0 КГц
Битовая глубина : 16 бит
Метод сжатия : С потерями
Размер потока : 65,1 Мбайт (11%)
Выравнивание : Разделение по промежуткам
Продолжительность промежутка : 40 мс. (1,00 видеокадр)
Время предзагрузки промежутка : 500 мс.

Скриншоты

Добавлены 1-8 серии.
Сериал залит полностью.


Последний раз редактировалось: papa1951deda (2018-06-01 09:46), всего редактировалось 2 раз(а)

[Цитировать]

Добавлены 7-8 серии.

[Цитировать]



Показать сообщения:    

Текущее время: 08-Июл 19:42

Часовой пояс: UTC + 6


Вы не можете начинать темы
Вы не можете отвечать на сообщения
Вы не можете редактировать свои сообщения
Вы не можете удалять свои сообщения
Вы не можете голосовать в опросах
Вы не можете прикреплять файлы к сообщениям
Вы не можете скачивать файлы

!ВНИМАНИЕ!
Сайт не предоставляет электронные версии произведений, а занимается лишь коллекционированием и каталогизацией ссылок, присылаемых и публикуемых на форуме нашими читателями. Если вы являетесь правообладателем какого-либо представленного материала и не желаете, чтобы ссылка на него находилась в нашем каталоге, свяжитесь с нами, и мы незамедлительно удалим ее. Файлы для обмена на трекере предоставлены пользователями сайта, и администрация не несет ответственности за их содержание. Просьба не заливать файлы, защищенные авторскими правами, а также файлы нелегального содержания!